<?xml version="1.0" standalone="no"?>
<!DOCTYPE svg PUBLIC "-//W3C//DTD SVG 1.1//EN" "http://www.w3.org/Graphics/SVG/1.1/DTD/svg11.dtd" >
<svg xmlns="http://www.w3.org/2000/svg">
<metadata>Generated by IcoMoon</metadata>
<defs>
<font id="uicore-admin" horiz-adv-x="1024">
<font-face units-per-em="1024" ascent="960" descent="-64" />
<missing-glyph horiz-adv-x="1024" />
<glyph unicode="&#x20;" horiz-adv-x="512" d="" />
<glyph unicode="&#xe900;" glyph-name="uicore-admin-monitor" horiz-adv-x="1126" d="M1024 857.6v-512h-921.6v512h921.6zM1024 960h-921.6c-56.32 0-102.4-46.080-102.4-102.4v-614.4c0-56.32 46.080-102.4 102.4-102.4h921.6c56.32 0 102.4 46.080 102.4 102.4v614.4c0 56.32-46.080 102.4-102.4 102.4v0zM819.2-64c-1.024 55.296-46.080 100.352-102.4 100.352h-307.2c-56.32 0-101.376-45.056-102.4-101.376h512z" />
<glyph unicode="&#xe901;" glyph-name="uicore-admin-phone" horiz-adv-x="650" d="M557.532 960h-464.61c-51.107 0-92.922-41.815-92.922-92.922v-838.156c0-51.107 41.815-92.922 92.922-92.922h464.61c51.107 0 92.922 41.815 92.922 92.922v838.156c0 51.107-41.815 92.922-92.922 92.922zM325.227-15.681c-26.018 0-46.461 20.443-46.461 46.461s20.443 46.461 46.461 46.461c26.018 0 46.461-20.443 46.461-46.461s-20.443-46.461-46.461-46.461zM557.532 123.702h-464.61v743.376h464.61v-743.376z" />
<glyph unicode="&#xe902;" glyph-name="uicore-admin-tablet" horiz-adv-x="838" d="M744.727 960h-651.636c-51.2 0-93.091-41.891-93.091-93.091v-837.818c0-51.2 41.891-93.091 93.091-93.091h651.636c51.2 0 93.091 41.891 93.091 93.091v837.818c0 51.2-41.891 93.091-93.091 93.091zM418.909-19.316c-26.065 0-46.545 20.48-46.545 46.545s20.48 46.545 46.545 46.545c26.065 0 46.545-20.48 46.545-46.545 0-25.135-20.48-46.545-46.545-46.545zM744.727 122.182h-651.636v744.727h651.636v-744.727z" />
<glyph unicode="&#xe903;" glyph-name="uicore-admin-blog" d="M768 192c38.4 0 64 25.6 64 64s-25.6 64-64 64c0 0-64 0-64-64s64-64 64-64zM512 192c38.4 0 64 25.6 64 64s-25.6 64-64 64-64-25.6-64-64 25.6-64 64-64zM256 192c38.4 0 64 25.6 64 64s-25.6 64-64 64c0 0-64 0-64-64s64-64 64-64zM960 768h-128v64c0 38.4-25.6 64-64 64s-64-25.6-64-64v-64h-128v64c0 38.4-25.6 64-64 64s-64-25.6-64-64v-64h-128v64c0 38.4-25.6 64-64 64s-64-25.6-64-64v-64h-128c-38.4 0-64-25.6-64-64v-640c0-38.4 25.6-64 64-64h896c38.4 0 64 25.6 64 64v640c0 38.4-25.6 64-64 64zM896 128h-768v256h768v-256zM896 512h-768v128h64c0-38.4 25.6-64 64-64s64 25.6 64 64h128c0-38.4 25.6-64 64-64s64 25.6 64 64h128c0-38.4 25.6-64 64-64s64 25.6 64 64h64v-128z" />
<glyph unicode="&#xe904;" glyph-name="uicore-admin-branding" d="M256 256c19.2 0 32 6.4 44.8 19.2l147.2 147.2 147.2-147.2c12.8-12.8 25.6-19.2 44.8-19.2 38.4 0 64 25.6 64 64 0 12.8-6.4 19.2-6.4 32l6.4 6.4 19.2-19.2c12.8-12.8 25.6-19.2 44.8-19.2 38.4 0 64 25.6 64 64 0 19.2-6.4 32-19.2 44.8l-64 64c-12.8 12.8-25.6 19.2-44.8 19.2s-32-6.4-44.8-19.2l-51.2-51.2-115.2 115.2c-12.8 12.8-25.6 19.2-44.8 19.2s-32-6.4-44.8-19.2l-192-192c-12.8-12.8-19.2-25.6-19.2-44.8 0-38.4 25.6-64 64-64zM608 576c19.2 0 32 12.8 32 32s-12.8 32-32 32-32-12.8-32-32 12.8-32 32-32zM960 832h-896c-38.4 0-64-25.6-64-64v-640c0-38.4 25.6-64 64-64h896c38.4 0 64 25.6 64 64v640c0 38.4-25.6 64-64 64zM896 192h-768v512h768v-512z" />
<glyph unicode="&#xe905;" glyph-name="uicore-admin-colors" d="M998.4 620.8c-6.4 19.2-19.2 32-38.4 38.4-153.6 38.4-243.2-64-281.6 0-25.6 44.8 19.2 96-38.4 198.4-32 51.2-153.6 57.6-262.4 0-6.4 0-140.8-76.8-140.8-76.8-211.2-147.2-294.4-384-198.4-550.4 108.8-179.2 396.8-217.6 640-76.8 25.6 12.8 89.6 51.2 115.2 64 172.8 89.6 281.6 281.6 204.8 403.2zM620.8 262.4c-185.6-102.4-396.8-89.6-467.2 32-70.4 115.2 19.2 300.8 204.8 403.2 38.4 19.2 102.4 57.6 179.2 64 0-57.6 6.4-121.6 32-166.4 70.4-121.6 166.4-83.2 320-44.8-6.4-160-134.4-211.2-268.8-288zM288 435.2c-32-12.8-38.4-51.2-25.6-83.2 19.2-32 57.6-38.4 89.6-25.6 32 19.2 44.8 57.6 25.6 89.6s-57.6 38.4-89.6 19.2zM608 441.6c-32 12.8-70.4 6.4-89.6-25.6s-6.4-70.4 25.6-89.6c32-12.8 70.4-6.4 89.6 25.6s6.4 70.4-25.6 89.6z" />
<glyph unicode="&#xe906;" glyph-name="uicore-admin-custom" d="M243.2 614.4c-25.6 25.6-70.4 25.6-96 0l-121.6-128c-25.6-19.2-25.6-64 0-89.6l121.6-128c25.6-25.6 70.4-25.6 96 0s25.6 70.4 0 96l-76.8 76.8 76.8 76.8c25.6 32 25.6 70.4 0 96zM1011.2 486.4l-121.6 128c-25.6 25.6-70.4 25.6-96 0s-25.6-70.4 0-96l76.8-76.8-76.8-76.8c-25.6-25.6-25.6-70.4 0-96s70.4-25.6 96 0l121.6 128c25.6 25.6 25.6 64 0 89.6zM646.4 825.6c-25.6 0-44.8-12.8-51.2-32v0l-256-640c0 0-6.4-6.4-6.4-32 0-38.4 25.6-64 64-64 44.8 0 57.6 32 57.6 32l256 640c0 0 6.4 6.4 6.4 32-6.4 38.4-38.4 64-70.4 64z" />
<glyph unicode="&#xe907;" glyph-name="uicore-admin-dashboard" d="M960 384h-320c-38.4 0-64-25.6-64-64v-320c0-38.4 25.6-64 64-64h320c38.4 0 64 25.6 64 64v320c0 38.4-25.6 64-64 64zM896 64h-192v192h192v-192zM384 960h-320c-38.4 0-64-25.6-64-64v-320c0-38.4 25.6-64 64-64h320c38.4 0 64 25.6 64 64v320c0 38.4-25.6 64-64 64zM320 640h-192v192h192v-192zM384 384h-320c-38.4 0-64-25.6-64-64v-320c0-38.4 25.6-64 64-64h320c38.4 0 64 25.6 64 64v320c0 38.4-25.6 64-64 64zM320 64h-192v192h192v-192zM960 960h-320c-38.4 0-64-25.6-64-64v-320c0-38.4 25.6-64 64-64h320c38.4 0 64 25.6 64 64v320c0 38.4-25.6 64-64 64zM896 640h-192v192h192v-192z" />
<glyph unicode="&#xe908;" glyph-name="uicore-admin-demo-import" d="M473.6 204.8c0 0 12.8-19.2 44.8-19.2 19.2 0 32 6.4 44.8 19.2l192 192c12.8 12.8 19.2 25.6 19.2 44.8 0 38.4-25.6 64-64 64-19.2 0-32-6.4-44.8-19.2l-83.2-83.2v486.4c0 38.4-25.6 64-64 64s-64-25.6-64-64v-486.4l-83.2 83.2c0 0-12.8 19.2-44.8 19.2-38.4 0-64-25.6-64-64 0-19.2 6.4-32 19.2-44.8l192-192zM966.4 377.6c-38.4 0-64-25.6-64-64v-256h-768v256c0 38.4-25.6 64-64 64s-64-25.6-64-64v-320c0-38.4 25.6-64 64-64h896c38.4 0 64 25.6 64 64v320c0 38.4-32 64-64 64z" />
<glyph unicode="&#xe909;" glyph-name="uicore-admin-feedback" d="M966.4 256l-172.8 51.2-115.2 140.8-115.2-140.8-179.2-51.2 108.8-147.2-6.4-172.8 179.2 51.2 179.2-51.2-6.4 172.8 128 147.2zM736 70.4l-57.6 25.6-57.6-25.6v64l-38.4 57.6 57.6 19.2 38.4 57.6 38.4-57.6 57.6-19.2-38.4-51.2v-70.4zM70.4 121.6v-128c0-38.4 25.6-64 64-64s64 25.6 64 64v128c0 38.4 25.6 64 64 64h64v128h-64c-108.8 0-192-83.2-192-192zM454.4 441.6c108.8 0 192 83.2 192 192v128c0 108.8-83.2 192-192 192s-192-83.2-192-192v-128c0-102.4 83.2-192 192-192zM390.4 761.6c0 38.4 25.6 64 64 64s64-25.6 64-64v-128c0-38.4-25.6-64-64-64s-64 25.6-64 64v128z" />
<glyph unicode="&#xe90a;" glyph-name="uicore-admin-footer" d="M64 64h896c38.4 0 64 25.6 64 64v640c0 38.4-25.6 64-64 64h-896c-38.4 0-64-25.6-64-64v-640c0-38.4 25.6-64 64-64zM128 704h768v-320h-768v320zM128 256h768v-64h-768v64z" />
<glyph unicode="&#xe90b;" glyph-name="uicore-admin-general-settings" d="M256 812.8v83.2c0 38.4-25.6 64-64 64s-64-25.6-64-64v-83.2c-38.4-19.2-64-64-64-108.8s25.6-89.6 64-108.8v-595.2c0-38.4 25.6-64 64-64s64 25.6 64 64v595.2c38.4 19.2 64 64 64 108.8s-25.6 89.6-64 108.8zM896 556.8v339.2c0 38.4-25.6 64-64 64s-64-25.6-64-64v-339.2c-38.4-19.2-64-64-64-108.8s25.6-89.6 64-108.8v-339.2c0-38.4 25.6-64 64-64s64 25.6 64 64v339.2c38.4 19.2 64 64 64 108.8s-25.6 89.6-64 108.8zM576 300.8v595.2c0 38.4-25.6 64-64 64s-64-25.6-64-64v-595.2c-38.4-19.2-64-64-64-108.8s25.6-89.6 64-108.8v-83.2c0-38.4 25.6-64 64-64s64 25.6 64 64v83.2c38.4 19.2 64 64 64 108.8s-25.6 89.6-64 108.8z" />
<glyph unicode="&#xe90c;" glyph-name="uicore-admin-get-help" d="M736 512c89.6 0 160 76.8 160 166.4v115.2c0 89.6-70.4 166.4-160 166.4s-160-76.8-160-166.4v-115.2c0-89.6 70.4-166.4 160-166.4zM704 768c0 38.4 0 64 32 64s32-25.6 32-64v-64c0-38.4 0-64-32-64s-32 25.6-32 64v64zM832 384h-192c-38.4 0-64-25.6-64-64s25.6-64 64-64h192c38.4 0 64-25.6 64-64v-64c0-38.4 25.6-64 64-64s64 25.6 64 64v64c0 108.8-83.2 192-192 192zM288 384c89.6 0 160 76.8 160 166.4v115.2c0 89.6-70.4 166.4-160 166.4s-160-76.8-160-166.4v-115.2c0-89.6 70.4-166.4 160-166.4zM256 640c0 38.4 0 64 32 64s32-25.6 32-64v-64c0-38.4 0-64-32-64s-32 25.6-32 64v64zM384 256h-192c-108.8 0-192-83.2-192-192v-64c0-38.4 25.6-64 64-64s64 25.6 64 64v64c0 38.4 25.6 64 64 64h192c38.4 0 64-25.6 64-64v-64c0-38.4 25.6-64 64-64s64 25.6 64 64v64c0 108.8-83.2 192-192 192z" />
<glyph unicode="&#xe90d;" glyph-name="uicore-admin-header" d="M960 960h-896c-38.4 0-64-25.6-64-64v-896c0-38.4 25.6-64 64-64h896c38.4 0 64 25.6 64 64v896c0 38.4-25.6 64-64 64zM128 832h128v-128h-128v128zM896 64h-768v576h768v-576zM896 704h-576v128h576v-128z" />
<glyph unicode="&#xe90e;" glyph-name="uicore-admin-import-export" d="M1004.8 684.8l-256 256c-12.8 12.8-25.6 19.2-44.8 19.2h-640c-38.4 0-64-25.6-64-64v-896c0-38.4 25.6-64 64-64h896c38.4 0 64 25.6 64 64v640c0 19.2-6.4 32-19.2 44.8zM448 832h128v-128h-128v128zM640 64h-256v192h256v-192zM896 64h-128v256c0 38.4-25.6 64-64 64h-384c-38.4 0-64-25.6-64-64v-256h-128v768h192v-192c0-38.4 25.6-64 64-64h256c38.4 0 64 25.6 64 64v166.4l192-192v-550.4z" />
<glyph unicode="&#xe90f;" glyph-name="uicore-admin-page-title" d="M960 832h-896c-38.4 0-64-25.6-64-64v-640c0-38.4 25.6-64 64-64h896c38.4 0 64 25.6 64 64v640c0 38.4-25.6 64-64 64zM896 192h-768v320h768v-320zM896 576h-768v128h768v-128z" />
<glyph unicode="&#xe910;" glyph-name="uicore-admin-plugins" d="M960 512h-134.4c-32 179.2-185.6 320-377.6 320h-192c-38.4 0-64-25.6-64-64v-64h-128c-38.4 0-64-25.6-64-64s25.6-64 64-64h128v-256h-128c-38.4 0-64-25.6-64-64s25.6-64 64-64h128v-64c0-38.4 25.6-64 64-64h192c192 0 345.6 140.8 377.6 320h134.4c38.4 0 64 25.6 64 64s-25.6 64-64 64zM448 192h-128v512h128c140.8 0 256-115.2 256-256s-115.2-256-256-256z" />
<glyph unicode="&#xe911;" glyph-name="uicore-admin-portfolio" d="M192 576h-128c-38.4 0-64-25.6-64-64v-128c0-38.4 25.6-64 64-64h128c38.4 0 64 25.6 64 64v128c0 38.4-25.6 64-64 64zM192 960h-128c-38.4 0-64-25.6-64-64v-128c0-38.4 25.6-64 64-64h128c38.4 0 64 25.6 64 64v128c0 38.4-25.6 64-64 64zM576 192h-128c-38.4 0-64-25.6-64-64v-128c0-38.4 25.6-64 64-64h128c38.4 0 64 25.6 64 64v128c0 38.4-25.6 64-64 64zM960 960h-128c-38.4 0-64-25.6-64-64v-128c0-38.4 25.6-64 64-64h128c38.4 0 64 25.6 64 64v128c0 38.4-25.6 64-64 64zM192 192h-128c-38.4 0-64-25.6-64-64v-128c0-38.4 25.6-64 64-64h128c38.4 0 64 25.6 64 64v128c0 38.4-25.6 64-64 64zM960 576h-128c-38.4 0-64-25.6-64-64v-128c0-38.4 25.6-64 64-64h128c38.4 0 64 25.6 64 64v128c0 38.4-25.6 64-64 64zM960 192h-128c-38.4 0-64-25.6-64-64v-128c0-38.4 25.6-64 64-64h128c38.4 0 64 25.6 64 64v128c0 38.4-25.6 64-64 64zM576 960h-128c-38.4 0-64-25.6-64-64v-128c0-38.4 25.6-64 64-64h128c38.4 0 64 25.6 64 64v128c0 38.4-25.6 64-64 64zM576 576h-128c-38.4 0-64-25.6-64-64v-128c0-38.4 25.6-64 64-64h128c38.4 0 64 25.6 64 64v128c0 38.4-25.6 64-64 64z" />
<glyph unicode="&#xe912;" glyph-name="uicore-admin-server-status" d="M960 320h-64v288c0 121.6-102.4 224-224 224s-224-102.4-224-224v-320c0-51.2-44.8-96-96-96s-96 44.8-96 96v288h64c38.4 0 64 25.6 64 64v256c0 38.4-25.6 64-64 64h-256c-38.4 0-64-25.6-64-64v-256c0-38.4 25.6-64 64-64h64v-288c0-121.6 102.4-224 224-224s224 102.4 224 224v320c0 51.2 44.8 96 96 96s96-44.8 96-96v-288h-64c-38.4 0-64-25.6-64-64v-256c0-38.4 25.6-64 64-64h256c38.4 0 64 25.6 64 64v256c0 38.4-25.6 64-64 64zM128 704v128h128v-128h-128zM896 64h-128v128h128v-128z" />
<glyph unicode="&#xe913;" glyph-name="uicore-admin-social" d="M966.4 953.6h-896c-38.4 0-64-25.6-64-64v-896c0-38.4 25.6-64 64-64h896c38.4 0 64 25.6 64 64v896c0 38.4-32 64-64 64zM518.4 569.6c70.4 0 128-57.6 128-128s-57.6-128-128-128-128 57.6-128 128 57.6 128 128 128zM902.4 57.6h-768v384h128c0-140.8 115.2-256 256-256s256 115.2 256 256h128v-384zM902.4 697.6c0-38.4-25.6-64-64-64h-64c-38.4 0-64 25.6-64 64v64c0 38.4 25.6 64 64 64h64c38.4 0 64-25.6 64-64v-64z" />
<glyph unicode="&#xe914;" glyph-name="uicore-admin-tutorials" d="M672 499.2v0l-192 128c-6.4 6.4-19.2 12.8-32 12.8-38.4 0-64-25.6-64-64v-256c0-38.4 25.6-64 64-64 12.8 0 25.6 6.4 32 12.8v0l192 128c19.2 12.8 32 32 32 51.2s-12.8 38.4-32 51.2zM512 441.6v12.8l12.8-6.4-12.8-6.4zM992 736c0 38.4-25.6 64-64 64 0 0-192 32-416 32s-416-32-416-32c-38.4 0-64-25.6-64-64 0 0-32-160-32-288s32-281.6 32-281.6c0-38.4 25.6-64 64-64 0 0 192-38.4 416-38.4s416 38.4 416 38.4c38.4 0 64 25.6 64 64 0 0 32 160 32 281.6 0 128-32 288-32 288zM864 230.4c0 0-160-38.4-352-38.4s-352 38.4-352 38.4-32 121.6-32 217.6c0 96 32 224 32 224s166.4 32 352 32c192 0 352-32 352-32s32-128 32-224-32-217.6-32-217.6z" />
<glyph unicode="&#xe915;" glyph-name="uicore-admin-typography" d="M832 256c-38.4 0-64-25.6-64-64v-128h-640v640h128c38.4 0 64 25.6 64 64s-25.6 64-64 64h-192c-38.4 0-64-25.6-64-64v-768c0-38.4 25.6-64 64-64h768c38.4 0 64 25.6 64 64v192c0 38.4-25.6 64-64 64zM1004.8 684.8l-256 256c-12.8 12.8-25.6 19.2-44.8 19.2s-32-6.4-44.8-19.2l-384-384c-12.8-12.8-19.2-25.6-19.2-44.8v-256c0-38.4 25.6-64 64-64h256c19.2 0 32 6.4 44.8 19.2l384 384c12.8 12.8 19.2 25.6 19.2 44.8s-6.4 32-19.2 44.8zM550.4 320h-166.4v166.4l320 320 166.4-166.4-320-320z" />
<glyph unicode="&#xe916;" glyph-name="uicore-admin-updates" d="M448 800c-32 0-64 25.6-64 64s25.6 64 64 64h512c38.4 0 64-25.6 64-64s-25.6-64-64-64h-512zM0-32h256v256h-256v-256zM64 160h128v-128h-128v128zM0 352h256v256h-256v-256zM64 544h128v-128h-128v128zM960 544c38.4 0 64-25.6 64-64s-25.6-64-64-64h-512c-38.4 0-64 25.6-64 64s25.6 64 64 64h512zM960 160c38.4 0 64-25.6 64-64s-25.6-64-64-64h-512c-38.4 0-64 25.6-64 64s25.6 64 64 64h512zM89.6 742.4l-83.2 89.6c-6.4 12.8-6.4 32 6.4 44.8 6.4 12.8 25.6 12.8 38.4 0l57.6-64 102.4 108.8c6.4 12.8 25.6 12.8 38.4 0 6.4-12.8 6.4-32 0-51.2l-121.6-128c-6.4-12.8-25.6-12.8-38.4 0z" />
<glyph unicode="&#xe917;" glyph-name="uicore-admin-woo-commerce" d="M960 6.4v0l-64 576c-6.4 32-32 57.6-64 57.6h-64v64c0 140.8-115.2 256-256 256s-256-115.2-256-256v-64h-64c-32 0-57.6-25.6-64-57.6v0l-64-576c0 0 0-6.4 0-6.4 0-38.4 25.6-64 64-64h768c38.4 0 64 25.6 64 64 0 0 0 6.4 0 6.4zM198.4 64l51.2 448h268.8l51.2-448h-371.2zM640 640h-256v64c0 70.4 57.6 128 128 128s128-57.6 128-128v-64zM697.6 64l-51.2 448h128l51.2-448h-128z" />
</font>
</defs>
</svg>
